Skip to main content

Carolina Chocolate Drops Live at Orton Park Festival on 2010-08-28




Disc 1 (54:33.60)
01. intro
02. Was You Ever in Quebec > Cindy Gal
03. Georgia Buck
04. Don't Get Trouble in Your Mind
05. Viper Mad
06. Will Adams Breakdown
07. Charming Betsy
08. Jackson
09. Two Time Loser

Disc 2 (43:49.22)
10. Sandy Boys
11. Genuine Negro Jig
12. Black Annie
13. Cornbead and Butterbeans
14. soleil salesiano (sp?)
15. Salty Dog
16. *
17. Hit 'em up Style
18. encore: Sourwood Mountain
19. outtro
20. recordists's signout

* with members of Monika and Christian Nieves


Collection CarolinaChocolateDrops
Band/Artist Carolina Chocolate Drops
Venue Orton Park Festival
Location Madison WI USA

Source Neumann KM140's > Beyer MV100 > Sony PCM-M10 + Soundcraft Live8 SBD > M-Audio Microtrack II > WAV @24/48
Lineage WAV > DP4 > Audacity > xACT > FLAC
Taped by morst
Transferred by morst

Notes

http://www.carolinachocolatedrops.com
http://www.marquette-neighborhood.org/activities/index.php?category_id=4733&subcategory_id=7376


Dom Flemons, Vocals, Steel Guitar, 4 String Banjo, Jug, Snare Drum, Quills
Rhiannon Giddens Vocals, Fiddle, 5 String Banjo
Justin Robinson Vocals, Fiddle, Jug, 5 String Banjo


(setlist help thanks to Soling!)

SHNTOOL:
length expanded size cdr WAVE problems fmt ratio filename
4:52.01 51511196 B --- -- ---xx CCD2010-08-28-mtx-d1t01.flac
4:59.29 52811852 B --- -- ---xx CCD2010-08-28-mtx-d1t02.flac
4:33.21 48206636 B --- -- ---xx CCD2010-08-28-mtx-d1t03.flac
3:03.07 32297708 B --- -- ---xx CCD2010-08-28-mtx-d1t04.flac
5:09.17 54547628 B --- -- ---xx CCD2010-08-28-mtx-d1t05.flac
5:43.72 60674588 B --- -- ---xx CCD2010-08-28-mtx-d1t06.flac
3:58.13 42013820 B --- -- ---xx CCD2010-08-28-mtx-d1t07.flac
4:52.52 51631148 B --- -- ---xx CCD2010-08-28-mtx-d1t08.flac
7:50.36 82992716 B --- -- ---xx CCD2010-08-28-mtx-d1t09.flac
5:22.17 56840828 B --- -- ---xx CCD2010-08-28-mtx-d1t10.flac
4:09.20 43970684 B --- -- ---xx CCD2010-08-28-mtx-d1t11.flac
6:04.32 64284908 B --- -- ---xx CCD2010-08-28-mtx-d2t01.flac
4:46.29 50518652 B --- -- ---xx CCD2010-08-28-mtx-d2t02.flac
4:09.65 44076524 B --- -- ---xx CCD2010-08-28-mtx-d2t03.flac
5:44.16 60719276 B --- -- ---xx CCD2010-08-28-mtx-d2t04.flac
8:37.31 91271756 B --- -- ---xx CCD2010-08-28-mtx-d2t05.flac
7:30.69 79542332 B --- -- ---xx CCD2010-08-28-mtx-d2t06.flac
5:38.42 59722028 B --- -- ---xx CCD2010-08-28-mtx-d2t07.flac
0:45.50 8055644 B --- -- ---xx CCD2010-08-28-mtx-d2t08.flac
0:31.63 5616620 B --- -- ---xx CCD2010-08-28-mtx-d2t09.flac
98:23.07 1041306544 B 0.5485 (20 files)

-~-~-~-~-~-~-~-~-~-~-~-~-~-~-~-~-~-~-~-~-~-~-~-~-~-
The Soundscape Preservation Society (Founded 1991)
http://www.iamtypingwithonefinger.com/SPS.html
-~-~-~-~-~-~-~-~-~-~-~-~-~-~-~-~-~-~-~-~-~-~-~-~-~-

Reviews

Reviewer: obh2o - - May 17, 2012
Subject: Excellent indeed !!
Hey morst ... am a bit late but just wanted to say strong work yet again. Hope all is well my good friend !!

Cheers, O'B
Reviewer: rastasean - - October 12, 2010
Subject: excellent music
I constantly listen to this solid recording on my music player almost daily.

my favorite song from this recording is hit 'em up sty;e'
DOWNLOAD OPTIONS
Uploaded by
morst
on 8/31/2010
Views
1,345
Favorites
2
Reviews
2
PEOPLE ALSO FOUND
Carolina Chocolate Drops
by Carolina Chocolate Drops
249
1
0
Source: SBD + AUD
Carolina Chocolate Drops
by Carolina Chocolate Drops
1,345
2
2
( 2 reviews )
Source: Neumann KM140's > Beyer MV100 > Sony PCM-M10 + Soundcraft Live8 SBD > M-Audio Microtrack II > WAV @24/48
Dead Rock West
by Dead Rock West
166
1
0
Source: AT853 > AT8531 > Edirol R-09
Cracker
by Cracker
246
1
0
Source: DAUD @48kHz, 24 bit
The Kind
by The Kind
3,210
0
1
( 1 reviews )
Source: Sony ECM-909 > D6 > CAS
Mojo Radio
by Mojo Radio
178
1
0
Source: Zoom H2 handy recorder, Built-in mics @ 90degrees > WAV @24bit/48kHz
ted quinn
259
1
0
Source: DAUD
Flame Shark
by Flame Shark
1,083
1
0
Source: KM140's > MV100 > PCM-M1
Community Audio
by Vladimir Noskov
11
1
0
Community Video
by saamot
62
1
0